Foro Puma
Bienvenido al "Foro Puma 2.0" te invitamos a Registrarte y asi poder ver contenidos ocultos exclusivo para usuarios Registrados.

SE PARTE DE ESTE FABULOSO FORO DE AMISTAD Y ENTRETENCIÒN

Buscar
 
 

Resultados por:
 

 


Rechercher Búsqueda avanzada

Sondeo

¿el CDA ganará a Huachipato?

78% 78% [ 7 ]
11% 11% [ 1 ]
0% 0% [ 0 ]
11% 11% [ 1 ]
0% 0% [ 0 ]

Votos Totales : 9

Pon Me gusta
Palabras claves

Últimos temas
Noviembre 2018
LunMarMiérJueVieSábDom
   1234
567891011
12131415161718
19202122232425
2627282930  

Calendario Calendario

Compañeros



Foroactivo en Facebook Pagina Foroactivo en Facebook YouTube de ForoactivoTV Foroactivo en Twitter


Video Destacado

[FLAC] Wisin & Yandel - La Revolucion (2009)

Ir abajo

[FLAC] Wisin & Yandel - La Revolucion (2009)

Mensaje por PumaMaster el Mar Feb 17, 2015 4:59 pm


Descargar:


GOOGLE DRIVER

Código:
REM GENRE Reggae
REM DATE 2009
REM DISCID CF0E3F0F
REM COMMENT "ExactAudioCopy v1.0b3"
PERFORMER "Wisin & Yandel"
TITLE "La Revolucion"
FILE "01. Wisin & Yandel - La revolucion.wav" WAVE
TRACK 01 AUDIO
TITLE "La revolucion"
PERFORMER "Wisin & Yandel"
INDEX 01 00:00:00
FILE "02. Wisin & Yandel - Quitame el dolor.wav" WAVE
TRACK 02 AUDIO
TITLE "Quitame el dolor"
PERFORMER "Wisin & Yandel"
INDEX 01 00:00:00
FILE "03. Wisin & Yandel - Encendio'.wav" WAVE
TRACK 03 AUDIO
TITLE "Encendio'"
PERFORMER "Wisin & Yandel"
INDEX 01 00:00:00
FILE "04. Wisin & Yandel - Mujeres in the club (ft. 50 Cent).wav" WAVE
TRACK 04 AUDIO
TITLE "Mujeres in the club (ft. 50 Cent)"
PERFORMER "Wisin & Yandel"
INDEX 01 00:00:00
FILE "05. Wisin & Yandel - Ahi voy.wav" WAVE
TRACK 05 AUDIO
TITLE "Ahi voy"
PERFORMER "Wisin & Yandel"
INDEX 01 00:00:00
FILE "06. Wisin & Yandel - Emociones.wav" WAVE
TRACK 06 AUDIO
TITLE "Emociones"
PERFORMER "Wisin & Yandel"
INDEX 01 00:00:00
FILE "07. Wisin & Yandel - Gracias a ti.wav" WAVE
TRACK 07 AUDIO
TITLE "Gracias a ti"
PERFORMER "Wisin & Yandel"
INDEX 01 00:00:00
FILE "08. Wisin & Yandel - Perfecto (ft. Yaviah, Ivy Queen).wav" WAVE
TRACK 08 AUDIO
TITLE "Perfecto (ft. Yaviah, Ivy Queen)"
PERFORMER "Wisin & Yandel"
INDEX 01 00:00:00
FILE "09. Wisin & Yandel - Abusadora.wav" WAVE
TRACK 09 AUDIO
TITLE "Abusadora"
PERFORMER "Wisin & Yandel"
INDEX 01 00:00:00
FILE "10. Wisin & Yandel - Ella me llama.wav" WAVE
TRACK 10 AUDIO
TITLE "Ella me llama"
PERFORMER "Wisin & Yandel"
INDEX 01 00:00:00
FILE "11. Wisin & Yandel - Yo lo se.wav" WAVE
TRACK 11 AUDIO
TITLE "Yo lo se"
PERFORMER "Wisin & Yandel"
INDEX 01 00:00:00
FILE "12. Wisin & Yandel - ¿Como quieres que te olvide (ft. Ednita Nazario).wav" WAVE
TRACK 12 AUDIO
TITLE "¿Como quieres que te olvide? (ft. Ednita Nazario)"
PERFORMER "Wisin & Yandel"
INDEX 01 00:00:00
FILE "13. Wisin & Yandel - Tu vives en mi.wav" WAVE
TRACK 13 AUDIO
TITLE "Tu vives en mi"
PERFORMER "Wisin & Yandel"
INDEX 01 00:00:00
TRACK 14 AUDIO
TITLE "Besos mojados"
PERFORMER "Wisin & Yandel"
INDEX 00 03:34:62
FILE "14. Wisin & Yandel - Besos mojados.wav" WAVE
INDEX 01 00:00:00
FILE "15. Wisin & Yandel - Descara Remix (ft. Yomo).wav" WAVE
TRACK 15 AUDIO
TITLE "Descara Remix (ft. Yomo)"
PERFORMER "Wisin & Yandel"
INDEX 01 00:00:00
avatar
PumaMaster
Administrador
Administrador

Mensajes : 374
Puntos Pumas : 16224
Reputación Puma : 66
Fecha de inscripción : 16/02/2015
Edad : 52
Localización : Antofagasta

Ver perfil de usuario http://www.foropuma2.com

Volver arriba Ir abajo

Re: [FLAC] Wisin & Yandel - La Revolucion (2009)

Mensaje por Teacher40 el Sáb Oct 03, 2015 10:26 am

Muchas gracias!!!
avatar
Teacher40
Pumita Novato
Pumita Novato

Mensajes : 1
Puntos Pumas : 11395
Reputación Puma : 5
Fecha de inscripción : 03/10/2015

Ver perfil de usuario

Volver arriba Ir abajo

Volver arriba

- Temas similares

 
Permisos de este foro:
No puedes responder a temas en este foro.